Начать новую тему Ответить на тему  [ 1 сообщение ] 
Статистика раздачи
Размер: 3.06 ГБ | Добавлен: 12 фев 2018, 19:47 | Скачали: 3420
Сидеров: 77  [0 байт/сек]    Личеров: 25  [0 байт/сек]

Автор

СообщениеДобавлено: 12 фев 2018, 19:47 

Не в сети
Супераплоадер
Супераплоадер
Аватара пользователя
Раздал: 863.29 ГБ
Скачал: 248.15 ГБ
Ратио: 3.479


Зарегистрирован: 10 окт 2013, 18:02
Сообщения: 2283


Год производства: 2018
Название ролика: Kara-Lee Solo
Жанр: Solo,Masturbation
В ролях: Kara-Lee
Продолжительность: 43 min 2 s
Подсайт и сайт: Abby Winters

Laying in bed, Kara-Lee beings to undress, sliding her pajamas shorts down her legs, uncovering her girly semitransparent panties through which her dark pubic hair is visible. Taking her panties off as well, Kara-Lee lays naked, caressing her own body, as her hands move from her pert breasts and erect nipples down to between her legs.

Putting on a smooth silk kimono, Kara-Lee jumps around the bed, with the soft fabric caressing her nipples before letting it slide down her body. Grabbing her hairbrush she rubs it against her labia, spreading it apart and uncovering her clitoris as she smiles playfully.

Тип видео : HD
Формат видео : MP4
Video
ID : 1
Format : AVC
Format/Info : Advanced Video Codec
Format profile : Main@L4.2
Format settings : CABAC / 4 Ref Frames
Format settings, CABAC : Yes
Format settings, RefFrames : 4 frames
Format settings, GOP : M=4, N=50
Codec ID : avc1
Codec ID/Info : Advanced Video Coding
Duration : 43 min 2 s
Bit rate : 10.0 Mb/s
Width : 1 920 pixels
Height : 1 080 pixels
Display aspect ratio : 16:9
Frame rate mode : Constant
Frame rate : 50.000 FPS
Standard : PAL
Color space : YUV
Chroma subsampling : 4:2:0
Bit depth : 8 bits
Scan type : Progressive
Bits/(Pixel*Frame) : 0.096
Stream size : 3.01 GiB (98%)
Color range : Limited
Color primaries : BT.709
Transfer characteristics : BT.709
Matrix coefficients : BT.709

Audio
ID : 2
Format : AAC
Format/Info : Advanced Audio Codec
Format profile : LC
Codec ID : mp4a-40-2
Duration : 43 min 2 s
Duration_LastFrame : -5 ms
Bit rate mode : Constant
Bit rate : 157 kb/s
Channel(s) : 2 channels
Channel(s)_Original : 1 channel
Channel positions : Front: C
Sampling rate : 48.0 kHz
Frame rate : 46.875 FPS (1024 SPF)
Compression mode : Lossy
Stream size : 48.4 MiB (2%)
Default : Yes
Alternate group : 1

Скриншоты:


Как тут качатьЗаказ порнушки!
Добавлен:  12 фев 2018, 19:47

Скачать торрент Смотреть онлайн
Скачать торрент

Размер: 3.06 ГБ
Скачали: 3420
Статус Проверен
 

Последний сидер: 18 часов 21 минуту 33 секунды назад
Приватный: Нет (DHT включён)
Нет сидов? Пиши сюдаКак скачать отдельный файл из раздачи?


Вернуться к началу
 Профиль  
 
Показать сообщения за:  Поле сортировки  
Начать новую тему Ответить на тему  [ 1 сообщение ] 


Кто сейчас на конференции

Зарегистрированные пользователи: Google [Bot], Yandex [Bot]


Вы не можете начинать темы
Вы не можете отвечать на сообщения
Вы не можете редактировать свои сообщения
Вы не можете удалять свои сообщения
Вы не можете добавлять вложения

Найти:
Перейти:  

Ресурс не предоставляет электронные версии произведений, а занимается лишь коллекционированием и каталогизацией ссылок, присылаемых и публикуемых на форуме нашими читателями. Если вы являетесь правообладателем какого-либо представленного материала и не желаете чтобы ссылка на него находилась в нашем каталоге, свяжитесь с нами и мы незамедлительно удалим её. Файлы для обмена на трекере предоставлены пользователями сайта, и администрация не несёт ответственности за их содержание. Просьба не заливать файлы, защищенные авторскими правами, а также файлы нелегального содержания!