Начать новую тему Ответить на тему  [ 1 сообщение ] 
Статистика раздачи
Размер: 1.31 ГБ | Добавлен: 27 фев 2018, 10:36 | Скачали: 9582
Сидеров: 39  [0 байт/сек]    Личеров: 21  [0 байт/сек]
Автор

СообщениеДобавлено: 27 фев 2018, 10:36 

Не в сети
Супераплоадер
Супераплоадер
Аватара пользователя
Раздал: 1011.16 ГБ
Скачал: 272.47 ГБ
Ратио: 3.711


Зарегистрирован: 10 окт 2013, 18:02
Сообщения: 3039
Год производства: 2018
Название ролика: Lovely brunette, Ayumi Wakaba might like an office
Жанр: All Sex,Asian Girls, Bukkake Facials, Hardcore Sex
В ролях: Ayumi Wakaba
Продолжительность: 59 min 55 s
Подсайт и сайт: JapanHDV

Ravishing office babe, Ayumi Wakaba was recently hired and already learning many secrets about the working style among her colleagues. She did not know that there is a lot of fucking happening at business meetings, but today she is going to experience one of those sessions, which is good because she has always wanted to try a threesome with men she has never met before. On the other hand, if the meeting turns out good, she will also get a nice bonus, so as soon as she met up with business partners, they started fucking like wild animals. Two hard dicks in her mouth felt a bit too much, but assfuck and pussyfuck at the same time felt just right, as well as a creampie in the end.

Тип видео : HD
Формат видео : MP4
Video
ID : 1
Format : AVC
Format/Info : Advanced Video Codec
Format profile : High@L4
Format settings : CABAC / 4 Ref Frames
Format settings, CABAC : Yes
Format settings, RefFrames : 4 frames
Codec ID : avc1
Codec ID/Info : Advanced Video Coding
Duration : 59 min 55 s
Bit rate : 3 000 kb/s
Width : 1 920 pixels
Height : 1 080 pixels
Display aspect ratio : 16:9
Frame rate mode : Constant
Frame rate : 29.970 (30000/1001) FPS
Color space : YUV
Chroma subsampling : 4:2:0
Bit depth : 8 bits
Scan type : Progressive
Bits/(Pixel*Frame) : 0.048
Stream size : 1.25 GiB (96%)
Writing library : x264 core 148 r2638 7599210
Encoding settings : cabac=1 / ref=3 / deblock=1:0:0 / analyse=0x3:0x113 / me=hex / subme=7 / psy=1 / psy_rd=1.00:0.00 / mixed_ref=1 / me_range=16 / chroma_me=1 / trellis=1 / 8x8dct=1 / cqm=0 / deadzone=21,11 / fast_pskip=1 / chroma_qp_offset=-2 / threads=16 / lookahead_threads=2 / sliced_threads=0 / nr=0 / decimate=1 / interlaced=0 / bluray_compat=0 / constrained_intra=0 / bframes=3 / b_pyramid=2 / b_adapt=1 / b_bias=0 / direct=1 / weightb=1 / open_gop=0 / weightp=2 / keyint=250 / keyint_min=25 / scenecut=40 / intra_refresh=0 / rc_lookahead=40 / rc=abr / mbtree=1 / bitrate=3000 / ratetol=1.0 / qcomp=0.60 / qpmin=0 / qpmax=69 / qpstep=4 / ip_ratio=1.40 / aq=1:1.00
Tagged date : UTC 2017-09-22 21:22:57

Audio
ID : 2
Format : AAC
Format/Info : Advanced Audio Codec
Format profile : LC
Codec ID : mp4a-40-2
Duration : 59 min 55 s
Source duration : 59 min 55 s
Source_Duration_LastFrame : -2 ms
Bit rate mode : Constant
Bit rate : 128 kb/s
Channel(s) : 2 channels
Channel positions : Front: L R
Sampling rate : 48.0 kHz
Frame rate : 46.875 FPS (1024 SPF)
Compression mode : Lossy
Stream size : 54.9 MiB (4%)
Source stream size : 54.9 MiB (4%)
Default : Yes
Alternate group : 1
Tagged date : UTC 2017-09-22 21:22:57

Скриншоты:

Как тут качатьЗаказ порнушки!
Добавлен:  27 фев 2018, 10:36

Скачать торрент Магнет ссылка
Скачать торрент

Размер: 1.31 ГБ
Скачали: 9582
Статус Проверен
 
Последний сидер: 20 часов 52 минуты 11 секунд назад
Приватный: Нет (DHT включён)
Нет сидов? Пиши сюдаКак скачать отдельный файл из раздачи?


Вернуться к началу
 Профиль  
 
Показать сообщения за:  Поле сортировки  
Начать новую тему Ответить на тему  [ 1 сообщение ] 


Кто сейчас на конференции

Зарегистрированные пользователи: Alexa [Bot], Google [Bot], Yandex [Bot]


Вы не можете начинать темы
Вы не можете отвечать на сообщения
Вы не можете редактировать свои сообщения
Вы не можете удалять свои сообщения
Вы не можете добавлять вложения

Найти:
Перейти:  

Ресурс не предоставляет электронные версии произведений, а занимается лишь коллекционированием и каталогизацией ссылок, присылаемых и публикуемых на форуме нашими читателями. Если вы являетесь правообладателем какого-либо представленного материала и не желаете чтобы ссылка на него находилась в нашем каталоге, свяжитесь с нами и мы незамедлительно удалим её. Файлы для обмена на трекере предоставлены пользователями сайта, и администрация не несёт ответственности за их содержание. Просьба не заливать файлы, защищенные авторскими правами, а также файлы нелегального содержания!