Начать новую тему Ответить на тему  [ 1 сообщение ] 
Статистика раздачи
Размер: 1.23 ГБ | Добавлен: 01 мар 2018, 06:04 | Скачали: 3209
Сидеров: 46  [0 байт/сек]    Личеров: 26  [0 байт/сек]
Автор

СообщениеДобавлено: 01 мар 2018, 06:04 

Не в сети
Супераплоадер
Супераплоадер
Аватара пользователя
Раздал: 1011.16 ГБ
Скачал: 272.47 ГБ
Ратио: 3.711


Зарегистрирован: 10 окт 2013, 18:02
Сообщения: 3039
Год производства: 2018
Название ролика: Aihara Miho punished by bosses with a threesome
Жанр: All Sex,Asian Girls, Bukkake Facials, Hardcore Sex
В ролях: Aihara Miho
Продолжительность: 56 min 30 s
Подсайт и сайт: JapanHDV

Aihara Miho is caught on camera masturbating at the office. In order to keep her job, she has to please both her boss and the company’s president. When one of them kisses her, the gal tubs the other man’s cock with her sexy feet in nylon stockings. She has the hairy cunt and the mouth fucked by the two men same time. More, the babe is fucked in the mouth and between the soles, same time. Each of these fellows fucks Aihara so hard, making her titties shake like crazy. One of them fills her love box with his cum.

Тип видео : HD
Формат видео : MP4
Video
ID : 1
Format : AVC
Format/Info : Advanced Video Codec
Format profile : High@L4.2
Format settings : CABAC / 4 Ref Frames
Format settings, CABAC : Yes
Format settings, RefFrames : 4 frames
Codec ID : avc1
Codec ID/Info : Advanced Video Coding
Duration : 56 min 30 s
Bit rate : 3 000 kb/s
Width : 1 920 pixels
Height : 1 080 pixels
Display aspect ratio : 16:9
Frame rate mode : Constant
Frame rate : 59.940 (60000/1001) FPS
Color space : YUV
Chroma subsampling : 4:2:0
Bit depth : 8 bits
Scan type : Progressive
Bits/(Pixel*Frame) : 0.024
Stream size : 1.18 GiB (96%)
Writing library : x264 core 148 r2638 7599210
Encoding settings : cabac=1 / ref=3 / deblock=1:0:0 / analyse=0x3:0x113 / me=hex / subme=7 / psy=1 / psy_rd=1.00:0.00 / mixed_ref=1 / me_range=16 / chroma_me=1 / trellis=1 / 8x8dct=1 / cqm=0 / deadzone=21,11 / fast_pskip=1 / chroma_qp_offset=-2 / threads=16 / lookahead_threads=2 / sliced_threads=0 / nr=0 / decimate=1 / interlaced=0 / bluray_compat=0 / constrained_intra=0 / bframes=3 / b_pyramid=2 / b_adapt=1 / b_bias=0 / direct=1 / weightb=1 / open_gop=0 / weightp=2 / keyint=250 / keyint_min=25 / scenecut=40 / intra_refresh=0 / rc_lookahead=40 / rc=abr / mbtree=1 / bitrate=3000 / ratetol=1.0 / qcomp=0.60 / qpmin=0 / qpmax=69 / qpstep=4 / ip_ratio=1.40 / aq=1:1.00
Language : English
Tagged date : UTC 2018-02-15 17:23:32

Audio
ID : 2
Format : AAC
Format/Info : Advanced Audio Codec
Format profile : LC
Codec ID : mp4a-40-2
Duration : 56 min 30 s
Source duration : 56 min 30 s
Source_Duration_LastFrame : -5 ms
Bit rate mode : Constant
Bit rate : 128 kb/s
Channel(s) : 2 channels
Channel positions : Front: L R
Sampling rate : 48.0 kHz
Frame rate : 46.875 FPS (1024 SPF)
Compression mode : Lossy
Stream size : 51.7 MiB (4%)
Source stream size : 51.7 MiB (4%)
Language : English
Default : Yes
Alternate group : 1
Tagged date : UTC 2018-02-15 17:23:32

Скриншоты:

Как тут качатьЗаказ порнушки!
Добавлен:  01 мар 2018, 06:04

Скачать торрент Магнет ссылка
Скачать торрент

Размер: 1.23 ГБ
Скачали: 3209
Статус Проверен
 
Последний сидер: 20 часов 56 минут 25 секунд назад
Приватный: Нет (DHT включён)
Нет сидов? Пиши сюдаКак скачать отдельный файл из раздачи?


Вернуться к началу
 Профиль  
 
Показать сообщения за:  Поле сортировки  
Начать новую тему Ответить на тему  [ 1 сообщение ] 


Кто сейчас на конференции

Зарегистрированные пользователи: Alexa [Bot], Google [Bot], Yandex [Bot]


Вы не можете начинать темы
Вы не можете отвечать на сообщения
Вы не можете редактировать свои сообщения
Вы не можете удалять свои сообщения
Вы не можете добавлять вложения

Найти:
Перейти:  

Ресурс не предоставляет электронные версии произведений, а занимается лишь коллекционированием и каталогизацией ссылок, присылаемых и публикуемых на форуме нашими читателями. Если вы являетесь правообладателем какого-либо представленного материала и не желаете чтобы ссылка на него находилась в нашем каталоге, свяжитесь с нами и мы незамедлительно удалим её. Файлы для обмена на трекере предоставлены пользователями сайта, и администрация не несёт ответственности за их содержание. Просьба не заливать файлы, защищенные авторскими правами, а также файлы нелегального содержания!