Начать новую тему Ответить на тему  [ 1 сообщение ] 
Статистика раздачи
Размер: 272.84 МБ | Добавлен: 01 мар 2018, 06:04 | Скачали: 3433
Сидеров: 35  [0 байт/сек]    Личеров: 5  [0 байт/сек]
Автор

СообщениеДобавлено: 01 мар 2018, 06:04 

Не в сети
Супераплоадер
Супераплоадер
Аватара пользователя
Раздал: 1011.16 ГБ
Скачал: 272.47 ГБ
Ратио: 3.711


Зарегистрирован: 10 окт 2013, 18:02
Сообщения: 3049
Год производства: 2018
Название ролика: Machiko Ono fucked in the mouth by her boss
Жанр: All Sex,Asian Girls, Bukkake Facials, Hardcore Sex
В ролях: Machiko Ono
Продолжительность: 12 min 9 s
Подсайт и сайт: JapanHDV

Shy Machiko Ono is called to meet the company’s president. He asks her to try the new uniform, but she ends by ‘trying’ her blowjob abilities. In long socks and lingerie, this doll licks her superior’s balls so fine. She licks the man cock’s head too, but he asks her to take all of his cock in her mouth. This obedient gal takes the dick in a very hot deepthroat and she is fucked in the mouth more and more. After being screwed in her mouth’s corner, Machiko sucks and strokes the cock until she gets cum on her tongue.

Тип видео : HD
Формат видео : MP4
Video
ID : 1
Format : AVC
Format/Info : Advanced Video Codec
Format profile : [email protected]
Format settings : CABAC / 4 Ref Frames
Format settings, CABAC : Yes
Format settings, RefFrames : 4 frames
Codec ID : avc1
Codec ID/Info : Advanced Video Coding
Duration : 12 min 9 s
Bit rate : 3 000 kb/s
Width : 1 920 pixels
Height : 1 080 pixels
Display aspect ratio : 16:9
Frame rate mode : Constant
Frame rate : 29.970 (30000/1001) FPS
Color space : YUV
Chroma subsampling : 4:2:0
Bit depth : 8 bits
Scan type : Progressive
Bits/(Pixel*Frame) : 0.048
Stream size : 261 MiB (96%)
Writing library : x264 core 148 r2638 7599210
Encoding settings : cabac=1 / ref=3 / deblock=1:0:0 / analyse=0x3:0x113 / me=hex / subme=7 / psy=1 / psy_rd=1.00:0.00 / mixed_ref=1 / me_range=16 / chroma_me=1 / trellis=1 / 8x8dct=1 / cqm=0 / deadzone=21,11 / fast_pskip=1 / chroma_qp_offset=-2 / threads=16 / lookahead_threads=2 / sliced_threads=0 / nr=0 / decimate=1 / interlaced=0 / bluray_compat=0 / constrained_intra=0 / bframes=3 / b_pyramid=2 / b_adapt=1 / b_bias=0 / direct=1 / weightb=1 / open_gop=0 / weightp=2 / keyint=250 / keyint_min=25 / scenecut=40 / intra_refresh=0 / rc_lookahead=40 / rc=abr / mbtree=1 / bitrate=3000 / ratetol=1.0 / qcomp=0.60 / qpmin=0 / qpmax=69 / qpstep=4 / ip_ratio=1.40 / aq=1:1.00
Tagged date : UTC 2018-02-11 14:09:36

Audio
ID : 2
Format : AAC
Format/Info : Advanced Audio Codec
Format profile : LC
Codec ID : mp4a-40-2
Duration : 12 min 9 s
Source duration : 12 min 9 s
Source_Duration_LastFrame : -13 ms
Bit rate mode : Constant
Bit rate : 128 kb/s
Channel(s) : 2 channels
Channel positions : Front: L R
Sampling rate : 48.0 kHz
Frame rate : 46.875 FPS (1024 SPF)
Compression mode : Lossy
Stream size : 11.1 MiB (4%)
Source stream size : 11.1 MiB (4%)
Default : Yes
Alternate group : 1
Tagged date : UTC 2018-02-11 14:09:36

Скриншоты:

Как тут качатьЗаказ порнушки!
Добавлен:  01 мар 2018, 06:04

Скачать торрент Магнет ссылка
Скачать торрент

Размер: 272.84 МБ
Скачали: 3433
Статус Проверен
 
Последний сидер: 2 часа 59 минут 25 секунд назад
Приватный: Нет (DHT включён)
Нет сидов? Пиши сюдаКак скачать отдельный файл из раздачи?


Вернуться к началу
 Профиль  
 
Показать сообщения за:  Поле сортировки  
Начать новую тему Ответить на тему  [ 1 сообщение ] 


Кто сейчас на конференции

Зарегистрированные пользователи: Google [Bot], Yandex [Bot]


Вы не можете начинать темы
Вы не можете отвечать на сообщения
Вы не можете редактировать свои сообщения
Вы не можете удалять свои сообщения
Вы не можете добавлять вложения

Найти:
Перейти: