Начать новую тему Ответить на тему  [ 1 сообщение ] 
Статистика раздачи
Размер: 1.08 ГБ | Добавлен: 01 мар 2018, 06:05 | Скачали: 2836
Сидеров: 12  [0 байт/сек]    Личеров: 7  [0 байт/сек]
Автор

СообщениеДобавлено: 01 мар 2018, 06:05 

Не в сети
Супераплоадер
Супераплоадер
Аватара пользователя
Раздал: 1011.16 ГБ
Скачал: 272.47 ГБ
Ратио: 3.711


Зарегистрирован: 10 окт 2013, 18:02
Сообщения: 3049
Год производства: 2018
Название ролика: Nao Kato is about to learn her lesson
Жанр: All Sex,Asian Girls, Bukkake Facials, Hardcore Sex
В ролях: Nao Kato
Продолжительность: 49 min 28 s
Подсайт и сайт: JapanHDV

It looks like she got caught cheating on her husband, because at this point Nao Kato is in her home with two men- her husband and his good friend, whose plan is to teach her a lesson about her behavior. They know that she has a thing for hard dicks and plan to give it to her, until she has enough of it, so she would not ask for it from other men. They took her to the bedroom and started throatfucking her and fucking her bushy pussy at the same time, to make her scream from pleasure so loud that even her neighbors could hear her. Their hopes were that she will have enough of fucking for a while, once they are done with her.

Тип видео : HD
Формат видео : MP4
Video
ID : 1
Format : AVC
Format/Info : Advanced Video Codec
Format profile : [email protected]
Format settings : CABAC / 4 Ref Frames
Format settings, CABAC : Yes
Format settings, RefFrames : 4 frames
Codec ID : avc1
Codec ID/Info : Advanced Video Coding
Duration : 49 min 28 s
Bit rate : 3 000 kb/s
Width : 1 920 pixels
Height : 1 080 pixels
Display aspect ratio : 16:9
Frame rate mode : Constant
Frame rate : 29.970 (30000/1001) FPS
Color space : YUV
Chroma subsampling : 4:2:0
Bit depth : 8 bits
Scan type : Progressive
Bits/(Pixel*Frame) : 0.048
Stream size : 1.03 GiB (96%)
Writing library : x264 core 148 r2638 7599210
Encoding settings : cabac=1 / ref=3 / deblock=1:0:0 / analyse=0x3:0x113 / me=hex / subme=7 / psy=1 / psy_rd=1.00:0.00 / mixed_ref=1 / me_range=16 / chroma_me=1 / trellis=1 / 8x8dct=1 / cqm=0 / deadzone=21,11 / fast_pskip=1 / chroma_qp_offset=-2 / threads=16 / lookahead_threads=2 / sliced_threads=0 / nr=0 / decimate=1 / interlaced=0 / bluray_compat=0 / constrained_intra=0 / bframes=3 / b_pyramid=2 / b_adapt=1 / b_bias=0 / direct=1 / weightb=1 / open_gop=0 / weightp=2 / keyint=250 / keyint_min=25 / scenecut=40 / intra_refresh=0 / rc_lookahead=40 / rc=abr / mbtree=1 / bitrate=3000 / ratetol=1.0 / qcomp=0.60 / qpmin=0 / qpmax=69 / qpstep=4 / ip_ratio=1.40 / aq=1:1.00
Tagged date : UTC 2018-01-22 20:10:50

Audio
ID : 2
Format : AAC
Format/Info : Advanced Audio Codec
Format profile : LC
Codec ID : mp4a-40-2
Duration : 49 min 28 s
Source duration : 49 min 28 s
Source_Duration_LastFrame : -16 ms
Bit rate mode : Constant
Bit rate : 128 kb/s
Channel(s) : 2 channels
Channel positions : Front: L R
Sampling rate : 48.0 kHz
Frame rate : 46.875 FPS (1024 SPF)
Compression mode : Lossy
Stream size : 45.3 MiB (4%)
Source stream size : 45.3 MiB (4%)
Default : Yes
Alternate group : 1
Tagged date : UTC 2018-01-22 20:10:50

Скриншоты:

Как тут качатьЗаказ порнушки!
Добавлен:  01 мар 2018, 06:05

Скачать торрент Магнет ссылка
Скачать торрент

Размер: 1.08 ГБ
Скачали: 2836
Статус Проверен
 
Последний сидер: 3 часа 35 секунд назад
Приватный: Нет (DHT включён)
Нет сидов? Пиши сюдаКак скачать отдельный файл из раздачи?


Вернуться к началу
 Профиль  
 
Показать сообщения за:  Поле сортировки  
Начать новую тему Ответить на тему  [ 1 сообщение ] 


Кто сейчас на конференции

Зарегистрированные пользователи: Google [Bot], Yandex [Bot]


Вы не можете начинать темы
Вы не можете отвечать на сообщения
Вы не можете редактировать свои сообщения
Вы не можете удалять свои сообщения
Вы не можете добавлять вложения

Найти:
Перейти: