Начать новую тему Ответить на тему  [ 1 сообщение ] 
Статистика раздачи
Размер: 1.76 ГБ | Добавлен: 27 мар 2018, 04:44 | Скачали: 2240
Сидеров: 25  [0 байт/сек]    Личеров: 4  [0 байт/сек]
Автор

СообщениеДобавлено: 27 мар 2018, 04:44 

Не в сети
Супераплоадер
Супераплоадер
Аватара пользователя
Раздал: 1011.16 ГБ
Скачал: 272.47 ГБ
Ратио: 3.711


Зарегистрирован: 10 окт 2013, 18:02
Сообщения: 3039
Год производства: 2018
Название ролика: 2nd Gangbang And Bukkake
Жанр: All Sex,Milf , Big Tits,Hardcore
В ролях: Rita
Продолжительность: 30 min 51 s
Подсайт и сайт: Texas Bukkake

Everyone's favorite, Rita is back!! She was bummed last time that we didn't have more guys, so this time, we got her 14 cocks! Rita is amazing. We have never worked with a model quite like her. She knows exactly what to do and how to do it. She works the camera so well. In her second shoot, she eagerly takes on all the cocks without hesitation. She fucks like a champ and is VERY loud. Then she takes load after load on her face and loves every second of it. We hope you enjoy

Тип видео : HD
Формат видео : MP4
Video
ID : 1
Format : AVC
Format/Info : Advanced Video Codec
Format profile : High@L3.1
Format settings : CABAC / 2 Ref Frames
Format settings, CABAC : Yes
Format settings, RefFrames : 2 frames
Format settings, GOP : M=1, N=30
Codec ID : avc1
Codec ID/Info : Advanced Video Coding
Duration : 30 min 51 s
Bit rate mode : Variable
Bit rate : 7 958 kb/s
Maximum bit rate : 768 kb/s
Width : 1 280 pixels
Height : 720 pixels
Display aspect ratio : 16:9
Frame rate mode : Constant
Frame rate : 29.970 (30000/1001) FPS
Original frame rate : 25.000 FPS
Color space : YUV
Chroma subsampling : 4:2:0
Bit depth : 8 bits
Scan type : Progressive
Bits/(Pixel*Frame) : 0.288
Stream size : 1.72 GiB (98%)
Color range : Limited
Color primaries : BT.709
Transfer characteristics : BT.709
Matrix coefficients : BT.709

Audio
ID : 2
Format : AAC
Format/Info : Advanced Audio Codec
Format profile : LC
Codec ID : mp4a-40-2
Duration : 30 min 51 s
Duration_LastFrame : -20 ms
Bit rate mode : Constant
Bit rate : 187 kb/s
Channel(s) : 2 channels
Channel positions : Front: L R
Sampling rate : 48.0 kHz
Frame rate : 46.875 FPS (1024 SPF)
Compression mode : Lossy
Stream size : 41.2 MiB (2%)
Default : Yes
Alternate group : 1


Скриншоты:

Как тут качатьЗаказ порнушки!
Добавлен:  27 мар 2018, 04:44

Скачать торрент Магнет ссылка
Скачать торрент

Размер: 1.76 ГБ
Скачали: 2240
Статус Проверен
 
Последний сидер: 20 часов 52 минуты 1 секунду назад
Приватный: Нет (DHT включён)
Нет сидов? Пиши сюдаКак скачать отдельный файл из раздачи?


Вернуться к началу
 Профиль  
 
Показать сообщения за:  Поле сортировки  
Начать новую тему Ответить на тему  [ 1 сообщение ] 


Кто сейчас на конференции

Зарегистрированные пользователи: Alexa [Bot], Google [Bot], Yandex [Bot]


Вы не можете начинать темы
Вы не можете отвечать на сообщения
Вы не можете редактировать свои сообщения
Вы не можете удалять свои сообщения
Вы не можете добавлять вложения

Найти:
Перейти:  

Ресурс не предоставляет электронные версии произведений, а занимается лишь коллекционированием и каталогизацией ссылок, присылаемых и публикуемых на форуме нашими читателями. Если вы являетесь правообладателем какого-либо представленного материала и не желаете чтобы ссылка на него находилась в нашем каталоге, свяжитесь с нами и мы незамедлительно удалим её. Файлы для обмена на трекере предоставлены пользователями сайта, и администрация не несёт ответственности за их содержание. Просьба не заливать файлы, защищенные авторскими правами, а также файлы нелегального содержания!